<?xml version="1.0" standalone="no"?>
<!DOCTYPE svg PUBLIC "-//W3C//DTD SVG 1.1//EN" "http://www.w3.org/Graphics/SVG/1.1/DTD/svg11.dtd" >
<svg xmlns="http://www.w3.org/2000/svg">
<metadata>Generated by IcoMoon</metadata>
<defs>
<font id="icomoon" horiz-adv-x="1024">
<font-face units-per-em="1024" ascent="960" descent="-64" />
<missing-glyph horiz-adv-x="1024" />
<glyph unicode="&#x20;" horiz-adv-x="512" d="" />
<glyph unicode="&#xe900;" glyph-name="arrow_left" horiz-adv-x="1071" d="M502.691-40.727c-18.618 0-37.236 9.309-51.2 23.273l-409.6 418.909c-27.927 27.927-27.927 69.818 0 97.745l409.6 414.255c27.927 27.927 69.818 27.927 97.745 0s27.927-69.818 0-97.745l-293.236-302.545h716.8c37.236 0 69.818-32.582 69.818-69.818s-32.582-69.818-69.818-69.818h-712.145l293.236-302.545c27.927-27.927 27.927-69.818 0-97.745-13.964-13.964-32.582-18.618-46.545-18.618z" />
<glyph unicode="&#xe901;" glyph-name="arrow_right" horiz-adv-x="1071" d="M567.855-40.727c-18.618 0-37.236 4.655-46.545 18.618-27.927 27.927-27.927 69.818 0 97.745l293.236 302.545h-721.455c-37.236 0-69.818 32.582-69.818 69.818s32.582 69.818 69.818 69.818h716.8l-293.236 302.545c-27.927 27.927-27.927 69.818 0 97.745s69.818 27.927 97.745 0l409.6-418.909c27.927-27.927 27.927-69.818 0-97.745l-409.6-418.909c-13.964-13.964-32.582-23.273-51.2-23.273z" />
<glyph unicode="&#xe902;" glyph-name="batiment" horiz-adv-x="1007" d="M590.898 516.826h52.039c10.072 0 18.466 3.357 25.18 10.072s10.072 15.108 10.072 25.18-3.357 18.466-10.072 25.18c-6.715 6.715-15.108 10.072-25.18 10.072h-52.039c-10.072 0-18.466-3.357-25.18-10.072s-10.072-15.108-10.072-25.18 3.357-18.466 10.072-25.18c6.715-6.715 15.108-10.072 25.18-10.072zM364.275 343.921h52.039c10.072 0 18.466 3.357 25.18 10.072s10.072 15.108 10.072 25.18-3.357 18.466-10.072 25.18c-6.715 6.715-15.108 10.072-25.18 10.072h-52.039c-10.072 0-18.466-3.357-25.18-10.072s-10.072-15.108-10.072-25.18 3.357-18.466 10.072-25.18c6.715-6.715 15.108-10.072 25.18-10.072zM590.898 343.921h52.039c10.072 0 18.466 3.357 25.18 10.072s10.072 15.108 10.072 25.18-3.357 18.466-10.072 25.18-15.108 10.072-25.18 10.072h-52.039c-10.072 0-18.466-3.357-25.18-10.072s-10.072-15.108-10.072-25.18 3.357-18.466 10.072-25.18 15.108-10.072 25.18-10.072zM642.938 761.915h-52.039c-10.072 0-18.466-3.357-25.18-10.072s-10.072-15.108-10.072-25.18 3.357-18.466 10.072-25.18c6.715-6.715 15.108-10.072 25.18-10.072h52.039c10.072 0 18.466 3.357 25.18 10.072s10.072 15.108 10.072 25.18-3.357 18.466-10.072 25.18c-6.715 6.715-15.108 10.072-25.18 10.072zM416.315 587.331h-52.039c-10.072 0-18.466-3.357-25.18-10.072s-10.072-15.108-10.072-25.18 3.357-18.466 10.072-25.18 15.108-10.072 25.18-10.072h52.039c10.072 0 18.466 3.357 25.18 10.072s10.072 15.108 10.072 25.18-3.357 18.466-10.072 25.18c-6.715 6.715-15.108 10.072-25.18 10.072zM416.315 761.915h-52.039c-10.072 0-18.466-3.357-25.18-10.072s-10.072-15.108-10.072-25.18 3.357-18.466 10.072-25.18 15.108-10.072 25.18-10.072h52.039c10.072 0 18.466 3.357 25.18 10.072s10.072 15.108 10.072 25.18-3.357 18.466-10.072 25.18-15.108 10.072-25.18 10.072zM955.174 31.685h-104.079v832.63h33.574c10.072 0 18.466 3.357 25.18 10.072s10.072 15.108 10.072 25.18-3.357 18.466-10.072 25.18c-6.715 6.715-15.108 10.072-25.18 10.072h-763.803c-10.072 0-18.466-3.357-25.18-10.072s-10.072-15.108-10.072-25.18 3.357-18.466 10.072-25.18 15.108-10.072 25.18-10.072h33.574v-832.63h-102.4c-10.072 0-18.466-3.357-25.18-10.072s-10.072-15.108-10.072-25.18 3.357-18.466 10.072-25.18 15.108-10.072 25.18-10.072h903.134c10.072 0 18.466 3.357 25.18 10.072s10.072 15.108 10.072 25.18-3.357 18.466-10.072 25.18-15.108 10.072-25.18 10.072zM572.433 31.685h-137.652v137.652h137.652v-137.652zM780.59 31.685h-137.652v172.905c0 10.072-3.357 18.466-10.072 25.18s-15.108 10.072-25.18 10.072h-208.157c-10.072 0-18.466-3.357-25.18-10.072s-10.072-15.108-10.072-25.18v-172.905h-137.652v832.63h553.967v-832.63z" />
<glyph unicode="&#xe903;" glyph-name="bell" horiz-adv-x="918" d="M459.034-64c-52.966 0-102.4 21.186-137.71 56.497s-56.497 84.745-56.497 137.71v17.655h-229.517c-17.655 0-31.779 10.593-35.31 24.717s0 31.779 17.655 38.841c24.717 14.124 45.903 31.779 60.028 56.497 14.124 21.186 24.717 49.434 28.248 74.152v155.366c0 74.152 28.248 148.303 67.090 208.331 35.31 56.497 88.276 102.4 144.772 134.179 3.531 28.248 17.655 56.497 38.841 77.683 28.248 28.248 63.559 42.372 102.4 42.372s74.152-14.124 98.869-42.372c21.186-21.186 35.31-49.434 38.841-77.683 60.028-31.779 109.462-77.683 144.772-134.179 42.372-60.028 63.559-134.179 67.090-204.8v-158.897c3.531-28.248 14.124-52.966 28.248-74.152s35.31-42.372 60.028-56.497c14.124-7.062 21.186-24.717 17.655-38.841s-17.655-24.717-35.31-24.717h-229.517v-17.655c0-52.966-21.186-102.4-56.497-137.71s-84.745-56.497-137.71-56.497zM335.448 147.862v-17.655c0-31.779 14.124-63.559 35.31-88.276 45.903-45.903 127.117-45.903 173.021 0 24.717 24.717 35.31 52.966 35.31 88.276v17.655h-247.172zM127.117 218.483h660.303c0 3.531-7.062 7.062-7.062 10.593-21.186 31.779-35.31 70.621-38.841 105.931 0 0 0 0 0 3.531v158.897c0 60.028-21.186 116.524-56.497 169.49s-81.214 91.807-134.179 116.524c-10.593 7.062-21.186 17.655-21.186 31.779s-7.062 35.31-21.186 49.434c-24.717 24.717-74.152 24.717-98.869 0s-21.186-31.779-21.186-49.434-7.062-24.717-21.186-31.779c-56.497-24.717-102.4-67.090-134.179-116.524-35.31-49.434-52.966-109.462-56.497-169.49v-158.897s0 0 0-3.531c-3.531-38.841-17.655-74.152-38.841-105.931 0-3.531-7.062-7.062-7.062-10.593zM353.103 818.759v0 0z" />
<glyph unicode="&#xe904;" glyph-name="book_open" horiz-adv-x="1268" d="M1199.543 935.619h-312.076c-68.267 0-131.657-19.505-190.171-58.514l-68.267-43.886-68.267 43.886c-58.514 39.010-121.905 58.514-190.171 58.514h-302.324c-24.381 0-43.886-19.505-43.886-43.886v-789.943c0-24.381 19.505-43.886 43.886-43.886h312.076c68.267 0 131.657-19.505 190.171-58.514l58.514-39.010s0 0 4.876 0 0 0 4.876 0l58.514 39.010c58.514 39.010 121.905 58.514 190.171 58.514h312.076c24.381 0 43.886 19.505 43.886 43.886v789.943c0 24.381-19.505 43.886-43.886 43.886zM380.343 160.305h-258.438v677.79h258.438c48.762 0 92.648-14.629 136.533-39.010l68.267-43.886h9.752v-648.533c-63.39 34.133-136.533 53.638-209.676 53.638zM1145.905 160.305h-258.438c-73.143 0-146.286-19.505-209.676-53.638v638.781h9.752c0 4.876 68.267 48.762 68.267 48.762 39.010 24.381 87.771 39.010 136.533 39.010h258.438v-677.79zM477.867 657.676h-253.562c-4.876 0-9.752 0-9.752-9.752v-63.39c0-4.876 0-9.752 9.752-9.752h253.562c4.876 0 9.752 0 9.752 9.752v63.39c0 4.876 0 9.752-9.752 9.752zM780.19 647.924v-63.39c0-4.876 0-9.752 9.752-9.752h253.562c4.876 0 9.752 0 9.752 9.752v63.39c0 4.876 0 9.752-9.752 9.752h-253.562c-4.876 0-9.752 0-9.752-9.752zM477.867 462.629h-253.562c-4.876 0-9.752 0-9.752-9.752v-63.39c0-4.876 0-9.752 9.752-9.752h253.562c4.876 0 9.752 0 9.752 9.752v63.39c0 4.876 0 9.752-9.752 9.752zM1043.505 462.629h-253.562c-4.876 0-9.752 0-9.752-9.752v-63.39c0-4.876 0-9.752 9.752-9.752h253.562c4.876 0 9.752 0 9.752 9.752v63.39c0 4.876 0 9.752-9.752 9.752z" />
<glyph unicode="&#xe905;" glyph-name="book" horiz-adv-x="931" d="M889.018 918.109c-13.964 13.964-32.582 18.618-51.2 18.618h-651.636c-41.891 0-83.782-18.618-116.364-46.545-32.582-32.582-46.545-69.818-46.545-116.364v-628.364c0-51.2 18.618-97.745 55.855-130.327 37.236-37.236 83.782-55.855 130.327-55.855h628.364c18.618 0 37.236 9.309 51.2 18.618s18.618 32.582 18.618 51.2v837.818c0 18.618-9.309 37.236-18.618 51.2zM162.909 773.818c0 4.655 0 13.964 4.655 18.618 0 0 9.309 4.655 18.618 4.655h581.818v-465.455h-558.545c-13.964 0-32.582 0-46.545-4.655v446.836zM176.873 178.036c9.309 9.309 18.618 13.964 32.582 13.964h558.545v-93.091h-558.545c-13.964 0-23.273 4.655-32.582 13.964s-13.964 18.618-13.964 32.582 4.655 23.273 13.964 32.582z" />
<glyph unicode="&#xe906;" glyph-name="briefcase" horiz-adv-x="1106" d="M946.176-51.712h-761.856c-40.96 0-77.824 16.384-106.496 45.056s-45.056 65.536-45.056 106.496v491.52c0 40.96 16.384 77.824 45.056 106.496s65.536 45.056 106.496 45.056h122.88v69.632c0 40.96 16.384 77.824 45.056 106.496 24.576 24.576 65.536 40.96 102.4 40.96h217.088c40.96 0 77.824-16.384 106.496-45.056s45.056-65.536 45.056-106.496v-69.632h122.88c40.96 0 77.824-16.384 106.496-45.056s45.056-65.536 45.056-106.496v-491.52c0-40.96-16.384-77.824-45.056-106.496s-65.536-45.056-106.496-45.056zM184.32 660.992c-16.384 0-36.864-8.192-49.152-20.48s-20.48-28.672-20.48-49.152v-491.52c0-16.384 8.192-36.864 20.48-49.152s28.672-20.48 49.152-20.48h765.952c16.384 0 36.864 8.192 49.152 20.48s20.48 28.672 20.48 49.152v491.52c0 16.384-8.192 36.864-20.48 49.152s-28.672 20.48-49.152 20.48h-765.952zM389.12 742.912h356.352v69.632c0 16.384-8.192 36.864-20.48 49.152s-28.672 20.48-49.152 20.48h-217.088c-16.384 0-36.864-8.192-49.152-20.48s-20.48-28.672-20.48-49.152v-69.632zM565.248 386.56c-24.576 0-40.96 16.384-40.96 40.96s16.384 40.96 40.96 40.96 40.96-16.384 40.96-40.96v0c0-24.576-16.384-40.96-40.96-40.96zM565.248 214.528c-176.128 0-352.256 40.96-507.904 122.88-20.48 8.192-28.672 36.864-16.384 53.248 8.192 20.48 36.864 28.672 53.248 16.384 147.456-73.728 311.296-110.592 475.136-110.592s327.68 36.864 471.040 110.592c20.48 8.192 45.056 0 53.248-16.384 8.192-20.48 0-45.056-16.384-53.248-155.648-77.824-331.776-122.88-507.904-122.88z" />
<glyph unicode="&#xe907;" glyph-name="calendar" d="M737.28 960c15.36 0 25.6 0 35.84-15.36 10.24-10.24 15.36-20.48 20.48-35.84v0-61.44h112.64c30.72 0 56.32-10.24 76.8-30.72s35.84-46.080 35.84-76.8v-10.24s0-680.96 0-680.96c0-30.72-10.24-56.32-30.72-76.8s-46.080-35.84-76.8-35.84h-10.24s-798.72 0-798.72 0c-30.72 0-56.32 10.24-76.8 30.72s-35.84 46.080-35.84 76.8v10.24s10.24 680.96 10.24 680.96c0 30.72 10.24 56.32 30.72 76.8s46.080 35.84 76.8 35.84h10.24s112.64 0 112.64 0v56.32c0 15.36 5.12 30.72 15.36 40.96s25.6 15.36 35.84 15.36c15.36 0 30.72 0 40.96-15.36 10.24-10.24 20.48-20.48 20.48-35.84v0-61.44h343.040v56.32c0 15.36 5.12 30.72 15.36 40.96s20.48 15.36 35.84 15.36zM911.36 448h-798.72v-399.36h798.72v399.36zM911.36 734.72h-798.72v-168.96h798.72v168.96z" />
<glyph unicode="&#xe908;" glyph-name="car" horiz-adv-x="1506" d="M1110.092-64c-51.959 0-102.779 20.859-139.188 57.268-28.065 27.686-46.649 62.578-54.234 100.883h-328.059c-7.585-38.305-26.169-73.197-54.234-100.883-36.409-36.409-86.85-57.268-138.809-57.268s-101.641 20.48-138.809 57.268c-28.065 28.065-46.649 62.957-54.234 100.504h-85.333c-31.099 0-61.061 12.516-83.058 34.133-21.618 21.618-34.133 51.959-34.133 82.679v158.151c0 52.717 20.48 102.021 58.027 138.809 28.824 28.824 66.75 48.166 107.33 54.613l48.166 240.071c8.723 44.373 32.996 84.954 68.267 113.399 34.892 28.824 79.265 44.373 124.776 44.373h227.176c1.896 0 3.793 0 5.31 0h182.803c33.375 0 66.75-8.723 96.711-25.41s54.993-40.581 72.059-69.784l180.907-299.615h137.671c51.959 0 102.779-20.859 139.188-57.268 37.167-36.788 57.647-86.092 57.647-138.809v-158.151c0-30.72-12.516-60.681-34.133-82.679-21.618-21.618-51.959-34.133-83.058-34.133h-85.333c-7.585-37.547-26.169-72.439-53.855-100.504-37.547-37.167-86.85-57.268-139.188-57.268zM989.108 132.077c0-32.237 12.516-62.199 35.271-84.954 22.376-22.376 53.476-35.271 85.713-35.271s62.578 12.516 85.713 35.271c22.756 22.756 35.271 53.096 35.271 84.954s-12.516 62.199-35.65 84.954c-22.756 22.756-53.476 35.271-85.333 35.271s-62.957-12.895-85.333-35.271c-23.135-22.756-35.65-52.717-35.65-84.954zM274.584 132.077c0-31.858 12.516-62.199 35.65-84.954 22.756-22.756 53.476-35.271 85.333-35.271s62.957 12.895 85.333 35.271c21.997 21.618 34.133 50.062 35.271 80.403 0 1.517 0 3.034 0 4.551s0 3.034 0 4.551c-1.138 30.341-13.653 58.785-35.271 80.024-22.376 22.376-53.476 35.271-85.713 35.271s-62.578-12.516-85.713-35.271c-22.756-22.756-35.271-53.096-35.271-84.954zM1303.135 169.624h85.333c10.999 0 21.618 4.551 29.203 12.136s12.136 18.204 12.136 28.824v158.151c0 32.237-12.516 62.199-35.271 84.954-22.376 22.376-53.476 35.271-85.713 35.271h-158.151c-0.379 0-0.759 0-1.138 0h-951.941c-0.379 0-0.759 0-1.517 0-31.858 0-62.578-12.895-84.954-35.271-23.135-22.756-35.65-52.717-35.65-84.954v-158.151c0-10.619 4.551-21.239 12.136-28.824s18.204-12.136 29.203-12.136h85.333c7.585 37.926 26.169 72.818 54.234 101.262 37.547 37.167 86.85 57.268 139.188 57.268s102.779-20.859 139.188-57.268c28.065-27.686 46.649-62.578 54.234-100.883h328.059c7.585 38.305 26.169 73.197 54.234 100.883 36.409 36.409 86.85 57.268 138.809 57.268s101.641-20.48 138.809-57.268c28.444-28.444 47.028-63.336 54.234-101.262zM671.668 564.812h411.117l-157.393 260.551c-10.619 17.825-25.79 32.616-43.994 42.477-18.584 10.24-39.064 15.55-59.544 15.55h-150.187v-318.957zM243.105 564.812h352.711v319.336h-189.25c-28.065 0-55.372-9.481-76.99-27.307-21.618-17.446-36.409-42.098-41.719-69.404l-44.753-222.625z" />
<glyph unicode="&#xe909;" glyph-name="check" horiz-adv-x="1195" d="M452.267-4.267l-452.267 452.267 145.067 145.067 298.667-298.667 597.333 605.867 153.6-153.6-742.4-750.933z" />
<glyph unicode="&#xe90a;" glyph-name="chevron_down" horiz-adv-x="1707" d="M841.956-18.489l-807.822 807.822 159.289 170.667 648.533-659.911 659.911 659.911 159.289-170.667-819.2-807.822z" />
<glyph unicode="&#xe90b;" glyph-name="chevron_left" horiz-adv-x="614" d="M498.347-36.693l-491.52 491.52 491.52 484.693 95.573-95.573-389.12-389.12 389.12-395.947-95.573-95.573z" />
<glyph unicode="&#xe90c;" glyph-name="chevron_right" horiz-adv-x="683" d="M157.013-36.693l-95.573 95.573 389.12 395.947-389.12 389.12 95.573 95.573 484.693-484.693-484.693-491.52z" />
<glyph unicode="&#xe90d;" glyph-name="chevron_up" horiz-adv-x="1703" d="M166.698-64l-166.698 166.698 845.395 857.302 845.395-845.395-166.698-166.698-678.698 678.698-678.698-690.605z" />
<glyph unicode="&#xe90e;" glyph-name="close" d="M102.4-64l-102.4 102.4 409.6 409.6-409.6 409.6 102.4 102.4 409.6-409.6 409.6 409.6 102.4-102.4-409.6-409.6 409.6-409.6-102.4-102.4-409.6 409.6-409.6-409.6z" />
<glyph unicode="&#xe90f;" glyph-name="cms" horiz-adv-x="1007" d="M352.525 300.275v-28.538c0-60.433 23.502-117.508 67.148-159.475 41.967-41.967 100.721-67.148 159.475-67.148s117.508 23.502 159.475 67.148 67.148 100.721 67.148 159.475v83.934c-33.574 11.751-62.111 35.252-80.577 65.469s-25.18 67.148-18.466 102.4c6.715 35.252 23.502 67.148 52.039 90.649 26.859 23.502 62.111 35.252 97.364 35.252s70.505-13.43 97.364-35.252c26.859-23.502 45.325-55.397 52.039-90.649s0-70.505-18.466-102.4c-18.466-30.216-47.003-53.718-80.577-65.469v-83.934c0-87.292-35.252-169.548-95.685-231.659-62.111-62.111-144.367-95.685-231.659-95.685s-169.548 35.252-231.659 95.685c-62.111 62.111-95.685 144.367-95.685 231.659v28.538c-70.505 11.751-134.295 48.682-179.62 102.4-47.003 55.397-72.184 124.223-72.184 196.407v251.803c0 26.859 10.072 52.039 30.216 70.505 18.466 18.466 45.325 30.216 70.505 30.216h50.361c13.43 0 26.859-5.036 35.252-15.108 10.072-10.072 15.108-21.823 15.108-35.252s-5.036-26.859-15.108-35.252c-10.072-10.072-21.823-15.108-35.252-15.108h-50.361v-251.803c0-53.718 21.823-104.079 58.754-142.689 38.61-38.61 88.97-58.754 142.689-58.754s104.079 21.823 142.689 58.754 58.754 88.97 58.754 142.689v251.803h-50.361c-13.43 0-26.859 5.036-35.252 15.108-10.072 10.072-15.108 21.823-15.108 35.252s5.036 26.859 15.108 35.252c10.072 10.072 21.823 15.108 35.252 15.108h50.361c26.859 0 52.039-10.072 70.505-30.216 18.466-18.466 30.216-45.325 30.216-70.505v-251.803c0-72.184-25.18-141.010-72.184-194.728s-110.793-90.649-179.62-102.4zM856.131 448c13.43 0 26.859 5.036 35.252 15.108 10.072 10.072 15.108 21.823 15.108 35.252s-5.036 26.859-15.108 35.252c-10.072 10.072-21.823 15.108-35.252 15.108s-26.859-5.036-35.252-15.108c-10.072-10.072-15.108-21.823-15.108-35.252s5.036-26.859 15.108-35.252c10.072-10.072 21.823-15.108 35.252-15.108z" />
<glyph unicode="&#xe910;" glyph-name="college" horiz-adv-x="1010" d="M136.533 112.128h73.728c12.288 0 21.845 9.557 21.845 21.845v147.456c0 12.288-9.557 21.845-21.845 21.845h-73.728c-12.288 0-21.845-9.557-21.845-21.845v-147.456c0-12.288 9.557-21.845 21.845-21.845zM158.379 229.547v30.037h30.037v-30.037h-30.037zM158.379 155.819v30.037h30.037v-30.037h-30.037zM801.451 112.128h73.728c12.288 0 21.845 9.557 21.845 21.845v147.456c0 12.288-9.557 21.845-21.845 21.845h-73.728c-12.288 0-21.845-9.557-21.845-21.845v-147.456c0-12.288 9.557-21.845 21.845-21.845zM823.296 229.547v30.037h30.037v-30.037h-30.037zM823.296 155.819v30.037h30.037v-30.037h-30.037zM1004.885 364.715v0s-36.864 73.728-36.864 73.728c-4.096 6.827-10.923 12.288-19.115 12.288h-199.339v40.96c9.557-6.827 21.845-10.923 32.768-10.923 17.749 0 34.133 8.192 46.421 21.845 9.557 12.288 13.653 27.307 12.288 43.691-1.365 15.019-9.557 30.037-21.845 39.595l-277.163 221.184c-4.096 4.096-9.557 6.827-15.019 8.192v16.384h70.997c12.288 0 21.845 9.557 21.845 21.845v75.093c0 12.288-9.557 21.845-21.845 21.845h-92.843c-12.288 0-21.845-9.557-21.845-21.845v-111.957c-5.461-2.731-10.923-5.461-15.019-8.192l-277.163-222.549c-12.288-9.557-20.48-23.211-21.845-39.595-1.365-15.019 2.731-31.403 12.288-43.691 10.923-13.653 27.307-21.845 46.421-21.845s23.211 4.096 32.768 10.923v-40.96h-197.973c-8.192 0-15.019-4.096-19.115-12.288l-36.864-73.728c-4.096-6.827-2.731-15.019 0-21.845 4.096-6.827 10.923-10.923 19.115-10.923h15.019v-365.909c0-12.288 9.557-21.845 21.845-21.845h886.101c12.288 0 21.845 9.557 21.845 21.845v365.909h15.019c8.192 0 15.019 4.096 19.115 10.923s4.096 15.019 0 20.48zM262.144 38.4v-49.152h-177.493v49.152h177.493zM262.144 333.312v-251.221h-177.493v251.221h177.493zM613.035 1.536v-10.923h-214.357v10.923h214.357zM505.173 736.085c0 0-2.731 0-4.096 0 0 0-2.731 0-4.096 0s-2.731 0-4.096-1.365l-253.952-202.069s-1.365 0-1.365 0c-2.731-2.731-6.827-2.731-9.557-2.731-4.096 0-8.192 2.731-12.288 5.461-2.731 2.731-4.096 6.827-2.731 10.923 0 4.096 2.731 8.192 5.461 9.557l277.163 221.184c5.461 4.096 13.653 4.096 19.115 0l277.163-221.184c2.731-2.731 5.461-5.461 5.461-9.557s0-8.192-2.731-10.923c-2.731-4.096-6.827-5.461-12.288-5.461s-5.461 0-9.557 2.731l-253.952 203.435h-1.365c0 1.365-2.731 2.731-4.096 2.731h-4.096c0 1.365-2.731 1.365-4.096 1.365zM638.976 45.227v162.475c0 32.768-25.941 58.709-58.709 58.709h-147.456c-32.768 0-58.709-25.941-58.709-58.709v-162.475c-10.923-1.365-17.749-10.923-17.749-21.845v-32.768h-49.152v536.576l199.339 159.744 199.339-159.744v-536.576h-49.152v32.768c0 10.923-8.192 20.48-17.749 21.845zM527.019 222.72h51.883c8.192 0 15.019-6.827 15.019-15.019v-162.475h-66.901v177.493zM483.328 222.72v-177.493h-66.901v162.475c0 8.192 6.827 15.019 15.019 15.019h51.883zM527.019 875.349v30.037h49.152v-30.037h-49.152zM262.144 407.040v-30.037h-200.704l15.019 30.037h185.685zM950.272 377.003h-200.704v30.037h185.685l15.019-30.037zM927.061 38.4v-49.152h-177.493v49.152h177.493zM927.061 333.312v-251.221h-177.493v251.221h177.493zM505.173 599.552c-62.805 0-114.688-51.883-114.688-114.688s51.883-114.688 114.688-114.688 114.688 51.883 114.688 114.688-51.883 114.688-114.688 114.688zM576.171 484.864c0-38.229-31.403-70.997-70.997-70.997s-70.997 31.403-70.997 70.997 31.403 70.997 70.997 70.997 70.997-31.403 70.997-70.997zM527.019 494.421v24.576c0 12.288-9.557 21.845-21.845 21.845s-21.845-9.557-21.845-21.845v-34.133c0-5.461 2.731-10.923 6.827-15.019l24.576-24.576c2.731 0 6.827 0 9.557 0 5.461 0 10.923 2.731 15.019 6.827 8.192 8.192 8.192 21.845 0 31.403l-12.288 12.288zM561.152 340.139h-110.592c-12.288 0-21.845-9.557-21.845-21.845s9.557-21.845 21.845-21.845h110.592c12.288 0 21.845 9.557 21.845 21.845s-9.557 21.845-21.845 21.845z" />
<glyph unicode="&#xe911;" glyph-name="densite" horiz-adv-x="976" d="M897.786 455.144c8.335 14.288 13.098 30.958 13.098 47.628 0 33.34-17.86 64.298-46.437 80.967l-33.34 142.884c-4.763 21.433-22.623 35.721-44.056 35.721h-345.302c4.763 17.86 7.144 36.912 7.144 53.581 0 79.777-65.488 144.074-144.074 144.074s-144.074-64.298-144.074-144.074 2.381-35.721 7.144-53.581h-15.479c-21.433 0-39.293-14.288-44.056-35.721l-107.163-459.609c-3.572-14.288 0-28.577 8.335-39.293s21.433-16.67 34.53-16.67h612.019c4.763-19.051 22.623-33.34 42.865-33.34h21.433v-185.749c0-25.005 20.242-45.247 45.247-45.247h98.828c25.005 0 45.247 20.242 45.247 45.247v185.749h21.433c25.005 0 45.247 20.242 45.247 45.247v115.498c0 52.391-32.149 97.637-78.586 117.879zM882.307 315.833c-15.479 0-28.577-13.098-28.577-28.577v-285.767h-9.526v161.935c0 15.479-13.098 28.577-28.577 28.577s-28.577-13.098-28.577-28.577v-161.935h-9.526v285.767c0 15.479-13.098 28.577-28.577 28.577s-28.577-13.098-28.577-28.577v-53.581h-9.526v103.591c0 39.293 32.149 70.251 70.251 70.251h65.488c39.293 0 70.251-32.149 70.251-70.251v-103.591h-9.526v53.581c0 15.479-13.098 28.577-28.577 28.577zM815.628 464.67c-20.242 0-38.102 16.67-38.102 38.102s16.67 38.102 38.102 38.102 8.335 0 13.098-2.381c14.288-5.953 23.814-19.051 23.814-35.721s-16.67-38.102-38.102-38.102zM721.563 498.009h-207.181v207.181h263.144s25.005-109.544 25.005-109.544c-45.247-5.953-80.967-46.437-80.967-94.065s0-3.572 0-4.763zM709.656 440.856c-33.34-23.814-53.581-61.916-53.581-103.591v-70.251h-141.693v173.842h195.274zM457.228 440.856v-173.842h-397.693l40.484 173.842h357.209zM285.767 580.167c10.716-8.335 27.386-8.335 36.912 0 0 0 60.726 51.2 96.447 125.023h38.102v-207.181h-344.112l48.819 207.181h27.386c34.53-70.251 90.493-119.070 96.447-125.023zM216.707 815.926c0 47.628 39.293 86.921 86.921 86.921s86.921-39.293 86.921-86.921c0-73.823-55.963-141.693-86.921-175.033-32.149 33.34-86.921 101.209-86.921 175.033zM382.214 815.926c0 42.865-34.53 77.395-77.395 77.395s-77.395-34.53-77.395-77.395 34.53-77.395 77.395-77.395 77.395 34.53 77.395 77.395zM325.060 815.926c0-11.907-9.526-21.433-21.433-21.433s-21.433 9.526-21.433 21.433 9.526 21.433 21.433 21.433 21.433-9.526 21.433-21.433z" />
<glyph unicode="&#xe912;" glyph-name="download" d="M512 205.964l-307.2 307.2 83.782 88.436 158.255-158.255v493.382h121.018v-498.036l158.255 158.255 83.782-88.436-307.2-307.2zM144.291-40.727c-32.582 0-60.509 13.964-88.436 37.236-23.273 23.273-37.236 51.2-37.236 88.436v181.527h121.018v-181.527h735.418v181.527h121.018v-181.527c0-32.582-13.964-60.509-37.236-88.436-23.273-23.273-51.2-37.236-88.436-37.236h-726.109z" />
<glyph unicode="&#xe913;" glyph-name="ens" horiz-adv-x="1010" d="M376.428 726.355l51.921-149.994h157.206l50.479 148.552-129.803 95.189-128.361-93.746zM373.544 143.685l51.921 149.994h157.206l51.921-151.437-128.361-95.189-131.245 96.631zM692.282 693.183l-103.842-121.149 77.882-135.572 158.648 30.287 14.423 162.975-147.11 63.459zM826.411 398.963l-158.648 33.172-82.208-138.456 106.727-119.707 145.668 66.344-12.98 158.648zM317.296 691.741l106.727-118.265-80.766-137.014-155.763 33.172-15.865 160.090 144.225 63.459zM188.935 398.963l155.763 33.172 76.439-134.13-103.842-121.149-145.668 64.901 17.307 157.206zM507.673 322.524c60.575 0 109.611 49.037 109.611 109.611s-49.037 109.611-109.611 109.611-109.611-49.037-109.611-109.611 49.037-109.611 109.611-109.611zM504.789-56.789h4.327c56.248 0 112.496 10.096 164.417 28.845l-15.865 46.152c-47.594-17.307-98.073-25.961-148.552-25.961h-4.327c-119.707 0-233.645 46.152-318.738 131.245-86.535 85.093-135.572 199.031-137.014 321.623-2.885 250.952 200.473 457.194 451.425 460.079h4.327c249.51 0 452.868-201.915 455.752-451.425h49.037c-2.885 275.47-227.876 499.020-504.789 499.020h-4.327c-278.355-2.885-503.346-230.761-500.462-509.115 2.885-276.913 227.876-500.462 504.789-500.462zM757.183 10.997c20.192 11.538 40.383 23.076 59.132 37.499l-27.403 37.499c-17.307-12.98-36.056-23.076-54.806-33.172l21.634-41.825zM989.386 303.775s-15.865-51.921-24.518-73.555l-46.152 20.192s14.423 40.383 24.518 64.901l46.152-10.096zM924.485 158.107l-37.499 36.056s-36.056-49.037-43.268-59.132l33.172-31.73s20.192 17.307 47.594 54.806v0zM826.411 48.496l-69.228-44.71-20.192 49.037s37.499 25.961 53.363 37.499l36.056-43.268z" />
<glyph unicode="&#xe914;" glyph-name="facebook" horiz-adv-x="605" d="M390.982 373.527h125.673l51.2 200.145h-176.873v102.4c0 51.2 0 102.4 102.4 102.4h74.473v167.564c-18.618 0-79.127 9.309-144.291 9.309-134.982-4.655-232.727-88.436-232.727-242.036v-139.636h-153.6v-200.145h148.945v-428.218h200.145v428.218z" />
<glyph unicode="&#xe915;" glyph-name="file" horiz-adv-x="834" d="M701.63-64h-568.889c-34.133 0-68.267 15.17-94.815 37.926-26.548 26.548-37.926 56.889-37.926 94.815v758.519c0 34.133 15.17 68.267 37.926 94.815 26.548 22.756 60.681 37.926 94.815 37.926h360.296c34.133 0 64.474-15.17 91.022-37.926l208.593-204.8c11.378-11.378 22.756-26.548 30.341-41.719s11.378-34.133 11.378-53.096v-553.719c0-34.133-15.17-68.267-37.926-94.815-26.548-26.548-56.889-37.926-94.815-37.926zM132.741 884.148c-15.17 0-30.341-7.585-41.719-15.17-11.378-11.378-15.17-26.548-15.17-41.719v-758.519c0-15.17 7.585-30.341 15.17-41.719 11.378-11.378 26.548-15.17 41.719-15.17h568.889c15.17 0 30.341 7.585 41.719 15.17 11.378 11.378 15.17 26.548 15.17 41.719v553.719c0 7.585 0 15.17-3.793 22.756 0 7.585-7.585 15.17-11.378 18.963l-208.593 204.8c-11.378 11.378-26.548 15.17-37.926 15.17h-364.089zM417.185 174.933h-144.119c-22.756 0-37.926 15.17-37.926 37.926s15.17 37.926 37.926 37.926h144.119c22.756 0 37.926-15.17 37.926-37.926s-15.17-37.926-37.926-37.926zM561.304 364.563h-284.444c-22.756 0-37.926 15.17-37.926 37.926s15.17 37.926 37.926 37.926h284.444c22.756 0 37.926-15.17 37.926-37.926s-15.17-37.926-37.926-37.926zM796.444 599.704h-189.63c-34.133 0-68.267 15.17-94.815 37.926s-37.926 60.681-37.926 94.815v189.63h75.852v-189.63c0-15.17 7.585-30.341 15.17-41.719s26.548-15.17 41.719-15.17h189.63v-75.852z" />
<glyph unicode="&#xe916;" glyph-name="filters" horiz-adv-x="1280" d="M491.52 960c-46.080 0-92.16-15.36-133.12-40.96s-66.56-61.44-81.92-107.52h-245.76v-148.48h245.76c15.36-40.96 46.080-81.92 81.92-107.52 40.96-25.6 87.040-40.96 133.12-40.96s92.16 15.36 133.12 40.96c40.96 25.6 66.56 61.44 81.92 107.52h552.96v148.48h-552.96c-15.36 40.96-46.080 81.92-81.92 107.52-40.96 25.6-87.040 40.96-133.12 40.96zM414.72 739.84c0 20.48 10.24 35.84 20.48 51.2 15.36 15.36 35.84 20.48 56.32 20.48s40.96-10.24 56.32-20.48c15.36-15.36 20.48-30.72 20.48-51.2s-10.24-35.84-20.48-51.2c-15.36-15.36-35.84-20.48-56.32-20.48s-40.96 10.24-56.32 20.48c-15.36 15.36-20.48 30.72-20.48 51.2zM798.72 376.32c-46.080 0-92.16-15.36-133.12-40.96s-66.56-61.44-81.92-107.52h-552.96v-148.48h552.96c15.36-40.96 46.080-81.92 81.92-107.52 40.96-25.6 87.040-40.96 133.12-40.96s92.16 15.36 133.12 40.96c40.96 25.6 66.56 61.44 81.92 107.52h245.76v148.48h-245.76c-15.36 40.96-46.080 81.92-81.92 107.52-40.96 25.6-87.040 40.96-133.12 40.96zM721.92 156.16c0 20.48 10.24 35.84 20.48 51.2 15.36 15.36 35.84 20.48 56.32 20.48s40.96-10.24 56.32-20.48c15.36-15.36 20.48-30.72 20.48-51.2s-10.24-35.84-20.48-51.2c-15.36-15.36-35.84-20.48-56.32-20.48s-40.96 10.24-56.32 20.48c-15.36 15.36-20.48 30.72-20.48 51.2z" />
<glyph unicode="&#xe917;" glyph-name="hands" horiz-adv-x="1106" d="M684.032 38.4c-20.48 0-36.864 0-57.344 12.288-16.384 8.192-32.768 16.384-49.152 32.768l-98.304 98.304c-16.384 16.384-16.384 40.96 0 57.344s40.96 16.384 57.344 0l98.304-98.304c4.096-4.096 12.288-12.288 20.48-12.288 16.384-8.192 32.768-8.192 49.152 0 8.192 0 16.384 8.192 20.48 12.288s12.288 12.288 12.288 20.48c0 8.192 4.096 16.384 4.096 24.576s0 16.384-4.096 24.576c0 8.192-8.192 16.384-12.288 20.48-16.384 16.384-16.384 40.96 0 57.344s40.96 16.384 57.344 0 24.576-28.672 32.768-49.152c8.192-16.384 12.288-36.864 12.288-57.344s0-36.864-12.288-57.344c-8.192-16.384-16.384-32.768-32.768-49.152s-28.672-24.576-49.152-32.768c-16.384-8.192-36.864-12.288-57.344-12.288zM860.16 161.28c-40.96 0-77.824 16.384-102.4 40.96l-122.88 122.88c-16.384 16.384-16.384 40.96 0 57.344s40.96 16.384 57.344 0l122.88-122.88c24.576-24.576 65.536-24.576 90.112 0 12.288 12.288 20.48 28.672 20.48 45.056s-8.192 32.768-20.48 45.056l-192.512 192.512c-40.96 40.96-110.592 40.96-151.552 0l-45.056-45.056c-57.344-57.344-151.552-57.344-208.896 0s-40.96 65.536-40.96 102.4 16.384 77.824 40.96 102.4l139.264 139.264c53.248 53.248 118.784 86.016 192.512 94.208s147.456-8.192 208.896-45.056l24.576-12.288c12.288-8.192 28.672-12.288 40.96-8.192l86.016 16.384c20.48 4.096 45.056-8.192 49.152-32.768 4.096-20.48-8.192-45.056-32.768-49.152l-86.016-16.384c-32.768-8.192-69.632 0-98.304 16.384l-24.576 12.288c-45.056 28.672-102.4 40.96-155.648 32.768s-106.496-32.768-143.36-69.632l-139.264-139.264c-12.288-12.288-20.48-28.672-20.48-45.056s8.192-32.768 20.48-45.056c24.576-24.576 65.536-24.576 90.112 0l45.056 45.056c36.864 36.864 81.92 57.344 135.168 57.344s98.304-20.48 135.168-57.344l192.512-192.512c28.672-28.672 40.96-65.536 40.96-102.4s-16.384-77.824-40.96-102.4c-28.672-28.672-65.536-40.96-102.4-40.96zM458.752-35.328c-36.864 0-77.824 16.384-102.4 40.96l-323.584 323.584c-8.192 8.192-12.288 20.48-12.288 32.768l49.152 548.864c0 24.576 20.48 40.96 45.056 36.864 24.576 0 40.96-20.48 36.864-45.056v0c0-4.096 356.352-4.096 356.352-4.096 24.576 0 40.96-16.384 40.96-40.96s-16.384-40.96-40.96-40.96h-364.544l-40.96-442.368 311.296-311.296c24.576-24.576 65.536-24.576 90.112 0 12.288 12.288 20.48 28.672 20.48 45.056s-8.192 32.768-20.48 45.056c-16.384 16.384-16.384 40.96 0 57.344s40.96 16.384 57.344 0c28.672-28.672 40.96-65.536 40.96-102.4s-16.384-77.824-40.96-102.4c-28.672-28.672-65.536-40.96-102.4-40.96zM1056.768 316.928h-98.304c-24.576 0-40.96 16.384-40.96 40.96s16.384 40.96 40.96 40.96h53.248l-45.056 503.808c0 20.48 16.384 40.96 36.864 45.056 24.576 0 40.96-16.384 45.056-36.864l49.152-548.864c0-12.288 0-24.576-12.288-32.768-8.192-8.192-20.48-12.288-28.672-12.288z" />
<glyph unicode="&#xe918;" glyph-name="instagram" horiz-adv-x="1071" d="M325.818 950.691h423.564c162.909 0 293.236-130.327 293.236-293.236v-423.564c0-79.127-32.582-153.6-83.782-204.8-55.855-55.855-130.327-83.782-204.8-83.782h-428.218c-162.909 0-293.236 130.327-293.236 293.236v423.564c0 79.127 32.582 153.6 83.782 204.8 55.855 55.855 130.327 83.782 209.455 83.782zM311.855 852.945c-46.545 0-93.091-18.618-130.327-51.2-32.582-32.582-51.2-79.127-51.2-130.327v-442.182c0-102.4 79.127-181.527 181.527-181.527h442.182c46.545 0 93.091 18.618 130.327 51.2 32.582 32.582 51.2 79.127 51.2 130.327v442.182c0 102.4-79.127 181.527-181.527 181.527h-442.182zM800.582 773.818c18.618 0 32.582-4.655 46.545-18.618s18.618-27.927 18.618-46.545-4.655-32.582-18.618-46.545c-13.964-13.964-27.927-18.618-46.545-18.618s-32.582 4.655-46.545 18.618c-13.964 13.964-18.618 27.927-18.618 46.545s4.655 32.582 18.618 46.545c13.964 13.964 27.927 18.618 46.545 18.618zM535.273 699.345c65.164 0 130.327-27.927 176.873-74.473s74.473-111.709 74.473-176.873-27.927-130.327-74.473-176.873c-46.545-46.545-111.709-74.473-176.873-74.473s-130.327 27.927-176.873 74.473c-46.545 46.545-74.473 111.709-74.473 176.873s27.927 130.327 74.473 176.873c46.545 46.545 111.709 74.473 176.873 74.473zM535.273 601.6c-41.891 0-79.127-13.964-107.055-46.545-27.927-27.927-46.545-65.164-46.545-107.055s13.964-79.127 46.545-107.055c27.927-27.927 65.164-46.545 107.055-46.545s79.127 13.964 107.055 46.545c27.927 27.927 46.545 65.164 46.545 107.055s-13.964 79.127-46.545 107.055c-27.927 27.927-65.164 46.545-107.055 46.545z" />
<glyph unicode="&#xe919;" glyph-name="linkedin" horiz-adv-x="1075" d="M230.4 837.12c0-30.72-10.24-56.32-30.72-76.8s-51.2-30.72-76.8-30.72c-30.72 0-56.32 10.24-76.8 30.72s-30.72 51.2-30.72 76.8c0 30.72 10.24 56.32 30.72 76.8s51.2 30.72 76.8 30.72c30.72 0 56.32-10.24 76.8-30.72s30.72-51.2 30.72-76.8zM235.52 642.56h-220.16v-696.32h220.16v696.32zM583.68 642.56h-220.16v-696.32h220.16v363.52c0 204.8 266.24 220.16 266.24 0v-363.52h220.16v440.32c0 343.040-389.12 327.68-481.28 163.84v92.16z" />
<glyph unicode="&#xe91a;" glyph-name="mail" horiz-adv-x="1280" d="M128-64c-32 0-64 12.8-89.6 38.4s-38.4 57.6-38.4 89.6v768c0 38.4 12.8 64 38.4 89.6s57.6 38.4 89.6 38.4h1024c32 0 64-12.8 89.6-38.4s38.4-57.6 38.4-89.6v-768c0-38.4-12.8-64-38.4-89.6s-57.6-38.4-89.6-38.4h-1024zM640 384l-512 320v-640h1024v640l-512-320zM640 512l512 320h-1024l512-320zM128 704v0z" />
<glyph unicode="&#xe91b;" glyph-name="map_marker" horiz-adv-x="819" d="M409.6 345.6c114.688 0 204.8 90.112 204.8 204.8s-90.112 204.8-204.8 204.8-204.8-90.112-204.8-204.8 90.112-204.8 204.8-204.8zM409.6 652.8c57.344 0 102.4-45.056 102.4-102.4s-45.056-102.4-102.4-102.4-102.4 45.056-102.4 102.4 45.056 102.4 102.4 102.4zM380.928-55.808c8.192-8.192 20.48-8.192 28.672-8.192s20.48 0 28.672 8.192c16.384 12.288 380.928 274.432 380.928 606.208 0 225.28-184.32 409.6-409.6 409.6s-409.6-184.32-409.6-409.6c0-331.776 364.544-593.92 380.928-606.208zM409.6 857.6c167.936 0 307.2-139.264 307.2-307.2 0-225.28-225.28-430.080-307.2-499.712-81.92 65.536-307.2 270.336-307.2 499.712 0 167.936 139.264 307.2 307.2 307.2z" />
<glyph unicode="&#xe91c;" glyph-name="map_pin" horiz-adv-x="741" d="M333.345-33.498c-281.055 413.957-333.345 455.353-333.345 605.685s165.583 376.919 370.383 376.919 370.383-167.762 370.383-376.919-52.289-193.906-333.345-605.685c-4.357-6.536-10.894-10.894-17.43-15.251s-13.072-4.357-21.787-4.357c-6.536 0-15.251 0-21.787 4.357s-13.072 8.715-17.43 15.251v0s0 0 0 0zM370.383 417.498c41.396 0 80.613 17.43 108.936 45.753s45.753 69.719 45.753 111.115-15.251 80.613-45.753 111.115-67.54 45.753-108.936 45.753-80.613-17.43-108.936-45.753c-28.323-28.323-45.753-69.719-45.753-111.115s15.251-80.613 45.753-111.115c28.323-28.323 67.54-45.753 108.936-45.753z" />
<glyph unicode="&#xe91d;" glyph-name="mask" horiz-adv-x="1126" d="M563.2 243.2c-56.32 0-107.52 20.48-143.36 61.44-40.96 40.96-61.44 92.16-61.44 143.36s20.48 107.52 61.44 143.36c40.96 40.96 92.16 61.44 143.36 61.44s107.52-20.48 143.36-61.44c40.96-40.96 61.44-92.16 61.44-143.36s-20.48-107.52-61.44-143.36c-40.96-40.96-92.16-61.44-143.36-61.44zM563.2 550.4c-25.6 0-51.2-10.24-71.68-30.72s-30.72-46.080-30.72-71.68 10.24-51.2 30.72-71.68c40.96-40.96 107.52-40.96 143.36 0 20.48 20.48 30.72 46.080 30.72 71.68s-10.24 51.2-30.72 71.68-46.080 30.72-71.68 30.72zM563.2 38.4c-250.88 0-465.92 148.48-563.2 389.12 0 10.24 0 25.6 0 35.84 97.28 245.76 312.32 394.24 563.2 394.24s465.92-148.48 558.080-389.12c0-10.24 0-25.6 0-35.84-92.16-240.64-307.2-389.12-558.080-389.12zM107.52 448c81.92-189.44 256-307.2 455.68-307.2s373.76 117.76 455.68 307.2c-81.92 189.44-256 307.2-455.68 307.2s-373.76-117.76-455.68-307.2zM104.69 40.502l923.199 923.199 72.408-72.408-923.199-923.199-72.408 72.408z" />
<glyph unicode="&#xe91e;" glyph-name="minus" horiz-adv-x="4779" d="M0 960h4778.667v-1024h-4778.667v1024z" />
<glyph unicode="&#xe91f;" glyph-name="phone" d="M324.267 260.267c199.111-199.111 381.156-216.178 432.356-221.867 62.578 0 130.844 51.2 159.289 102.4-45.511 51.2-102.4 96.711-170.667 142.222-39.822-39.822-85.333-108.089-147.911-85.333-34.133 17.067-125.156 56.889-199.111 130.844-79.644 79.644-119.467 164.978-130.844 199.111-22.756 62.578 45.511 108.089 85.333 147.911-45.511 68.267-85.333 125.156-136.533 170.667-56.889-28.444-108.089-96.711-108.089-159.289 0-51.2 22.756-238.933 221.867-432.356zM750.933-64c-73.956 0-284.444 34.133-500.622 250.311-216.178 221.867-250.311 426.667-250.311 500.622 0 113.778 79.644 221.867 182.044 267.378 11.378 0 22.756 5.689 39.822 5.689 11.378 0 22.756-5.689 34.133-11.378 79.644-62.578 136.533-153.6 187.733-221.867 11.378-17.067 17.067-34.133 11.378-51.2 0-17.067-11.378-34.133-22.756-45.511l-68.267-68.267c17.067-34.133 51.2-96.711 102.4-153.6 51.2-51.2 113.778-85.333 153.6-102.4l68.267 68.267c11.378 11.378 28.444 22.756 45.511 22.756s34.133 0 51.2-11.378c73.956-51.2 159.289-108.089 221.867-187.733 5.689-11.378 11.378-22.756 17.067-34.133 0-11.378 0-28.444 0-39.822-45.511-102.4-153.6-187.733-261.689-182.044z" />
<glyph unicode="&#xe920;" glyph-name="play" horiz-adv-x="910" d="M910.222 448l-879.881-508.207v1020.207s879.881-508.207 879.881-508.207z" />
<glyph unicode="&#xe921;" glyph-name="plus" d="M1024 376.32h-440.32v-440.32h-148.48v440.32h-435.2v148.48h440.32v435.2h148.48v-440.32h440.32v-148.48z" />
<glyph unicode="&#xe922;" glyph-name="public" horiz-adv-x="1291" d="M1202.087-59.548c-35.617 0-66.783 31.165-66.783 66.783v75.687c0 89.043-89.043 164.73-200.348 164.73h-89.043c-35.617 0-66.783 31.165-66.783 66.783s31.165 66.783 66.783 66.783h89.043c182.539 0 333.913-133.565 333.913-298.296v-75.687c0-35.617-31.165-66.783-66.783-66.783zM707.896-59.548c-35.617 0-66.783 31.165-66.783 66.783v75.687c0 89.043-89.043 164.73-200.348 164.73h-89.043c-111.304 0-200.348-75.687-200.348-164.73v-75.687c0-35.617-31.165-66.783-66.783-66.783s-66.783 31.165-66.783 66.783v75.687c0 164.73 146.922 298.296 333.913 298.296h89.043c182.539 0 333.913-133.565 333.913-298.296v-75.687c0-35.617-31.165-66.783-66.783-66.783zM396.243 434.643c-66.783 0-129.113 26.713-178.087 75.687s-75.687 111.304-75.687 178.087 26.713 129.113 75.687 178.087c48.974 48.974 111.304 75.687 178.087 75.687s129.113-26.713 178.087-75.687c48.974-48.974 75.687-111.304 75.687-178.087s-26.713-129.113-75.687-178.087c-48.974-48.974-111.304-75.687-178.087-75.687zM396.243 804.174c-31.165 0-62.33-13.357-84.591-35.617s-35.617-53.426-35.617-84.591 13.357-62.33 35.617-84.591c44.522-44.522 124.661-44.522 169.183 0 22.261 22.261 35.617 53.426 35.617 84.591s-13.357 62.33-35.617 84.591c-22.261 22.261-53.426 35.617-84.591 35.617zM894.887 434.643c-26.713 0-57.878 4.452-84.591 13.357-35.617 13.357-53.426 48.974-40.070 84.591s48.974 53.426 84.591 40.070c17.809-4.452 35.617-8.904 57.878-4.452 17.809 0 35.617 8.904 53.426 22.261 13.357 8.904 26.713 26.713 35.617 44.522s13.357 35.617 13.357 53.426-4.452 35.617-13.357 53.426c-8.904 17.809-22.261 31.165-35.617 44.522-13.357 8.904-35.617 17.809-53.426 22.261-17.809 0-40.070 0-57.878-4.452-35.617-13.357-71.235 4.452-84.591 40.070s4.452 71.235 40.070 84.591c35.617 13.357 80.139 17.809 120.209 13.357s80.139-22.261 111.304-44.522c31.165-22.261 57.878-53.426 80.139-89.043 17.809-35.617 26.713-75.687 26.713-115.757s-8.904-80.139-26.713-115.757c-17.809-35.617-44.522-66.783-80.139-89.043-31.165-22.261-71.235-40.070-111.304-44.522-13.357 0-22.261 0-35.617 0z" />
<glyph unicode="&#xe923;" glyph-name="quotes" horiz-adv-x="1369" d="M302.415-64c-78.475 0-153.121 30.624-209.585 86.131-55.507 54.55-88.045 129.196-89.002 207.671-7.656 73.69-6.699 182.789 43.065 308.157 50.721 128.239 150.25 268.92 332.082 404.815 8.613 6.699 19.14 11.484 29.667 14.355s22.011 3.828 33.495 1.914c22.011-2.871 43.065-15.312 56.464-33.495s19.14-41.151 16.269-63.163c-2.871-22.011-15.312-43.065-33.495-56.464-133.024-100.486-209.585-197.144-253.607-282.318 41.151 10.527 84.217 12.441 125.368 4.785 42.108-7.656 81.346-22.968 116.755-46.893s65.077-54.55 87.088-90.916 36.366-76.561 42.108-118.669c5.742-42.108 1.914-85.174-10.527-125.368s-33.495-77.518-61.249-110.056c-27.753-31.581-62.206-57.421-101.443-74.647-38.28-17.226-80.389-26.796-122.497-26.796zM1069.936-64c-78.475 0-153.121 30.624-209.585 86.131-55.507 54.55-88.045 129.196-89.002 207.671-7.656 73.69-6.699 182.789 43.065 308.157 50.721 128.239 150.25 268.92 332.082 404.815 8.613 6.699 19.14 11.484 29.667 14.355s22.011 3.828 33.495 1.914c22.011-2.871 43.065-15.312 56.464-33.495s19.14-41.151 16.269-63.163c-2.871-22.011-15.312-43.065-33.495-56.464-133.024-100.486-209.585-197.144-253.607-282.318 41.151 10.527 84.217 12.441 125.368 4.785 42.108-7.656 81.346-22.968 116.755-46.893s65.077-54.55 87.088-90.916c22.011-36.366 36.366-76.561 42.108-118.669s1.914-85.174-10.527-125.368c-12.441-40.194-33.495-77.518-61.249-110.056-27.753-31.581-62.206-57.421-101.443-74.647-38.28-17.226-80.389-26.796-122.497-26.796z" />
<glyph unicode="&#xe924;" glyph-name="search" d="M977.455-64c-13.964 0-23.273 0-32.582 13.964l-195.491 195.491c-83.782-65.164-181.527-102.4-293.236-102.4s-237.382 46.545-325.818 134.982-130.327 200.145-130.327 321.164 46.545 237.382 134.982 325.818c41.891 41.891 93.091 74.473 148.945 97.745 111.709 46.545 242.036 46.545 353.745 0 55.855-23.273 107.055-55.855 148.945-97.745s74.473-93.091 97.745-148.945 37.236-116.364 37.236-176.873-13.964-121.018-37.236-176.873c-18.618-41.891-41.891-79.127-69.818-116.364l195.491-195.491c18.618-18.618 18.618-46.545 0-65.164s-23.273-13.964-32.582-13.964zM460.8 866.909c-46.545 0-97.745-9.309-139.636-27.927-46.545-18.618-83.782-46.545-121.018-79.127-69.818-69.818-107.055-162.909-107.055-260.655s37.236-190.836 107.055-260.655c69.818-69.818 162.909-107.055 260.655-107.055s190.836 37.236 260.655 107.055 60.509 74.473 79.127 121.018c18.618 46.545 27.927 93.091 27.927 139.636s-9.309 97.745-27.927 139.636c-18.618 46.545-46.545 83.782-79.127 121.018-32.582 32.582-74.473 60.509-121.018 79.127s-93.091 27.927-139.636 27.927z" />
<glyph unicode="&#xe925;" glyph-name="superficie" horiz-adv-x="1010" d="M901.408 225.893v442.772c24.518 5.769 47.594 18.749 64.901 37.499 18.749 17.307 31.73 40.383 37.499 64.901 7.211 24.518 7.211 50.479 0 74.997s-18.749 47.594-37.499 64.901c-17.307 17.307-40.383 30.287-64.901 37.499s-50.479 5.769-74.997 0c-24.518-7.211-46.152-20.192-64.901-37.499-17.307-18.749-30.287-40.383-37.499-64.901h-442.772c-5.769 24.518-18.749 47.594-37.499 64.901-17.307 18.749-40.383 31.73-64.901 37.499-24.518 7.211-50.479 7.211-74.997 0s-47.594-18.749-64.901-37.499c-14.423-18.749-27.403-41.825-34.614-66.344s-5.769-50.479 0-74.997c7.211-24.518 20.192-46.152 37.499-64.901 18.749-17.307 40.383-30.287 64.901-37.499v-442.772c-24.518-5.769-47.594-18.749-64.901-37.499-18.749-17.307-31.73-40.383-37.499-64.901-7.211-24.518-7.211-50.479 0-74.997s18.749-47.594 37.499-64.901c17.307-17.307 40.383-30.287 64.901-37.499s50.479-5.769 74.997 0c24.518 7.211 46.152 20.192 64.901 37.499 17.307 18.749 30.287 40.383 37.499 64.901h442.772c5.769-24.518 18.749-47.594 37.499-64.901 17.307-18.749 40.383-31.73 64.901-37.499 24.518-7.211 50.479-7.211 74.997 0s47.594 18.749 64.901 37.499 30.287 40.383 37.499 64.901c7.211 24.518 5.769 50.479 0 74.997-7.211 24.518-20.192 46.152-37.499 64.901-18.749 17.307-40.383 30.287-64.901 37.499zM865.352 879.234c14.423 0 28.845-4.327 40.383-11.538s21.634-18.749 25.961-31.73c5.769-12.98 7.211-27.403 4.327-41.825s-10.096-27.403-20.192-37.499c-10.096-10.096-23.076-17.307-37.499-20.192s-28.845 0-41.825 4.327c-12.98 5.769-24.518 14.423-31.73 25.961s-11.538 25.961-11.538 40.383 7.211 37.499 21.634 50.479c12.98 12.98 31.73 21.634 50.479 21.634zM72.113 807.121c0 14.423 4.327 28.845 11.538 40.383s18.749 21.634 31.73 25.961c12.98 5.769 27.403 7.211 41.825 4.327s27.403-10.096 37.499-20.192c10.096-10.096 17.307-23.076 20.192-37.499s0-28.845-4.327-41.825c-5.769-12.98-14.423-24.518-25.961-31.73s-25.961-11.538-40.383-11.538-37.499 7.211-50.479 21.634-21.634 31.73-21.634 50.479zM144.225 13.882c-14.423 0-28.845 4.327-40.383 11.538s-21.634 18.749-25.961 31.73c-5.769 12.98-7.211 27.403-4.327 41.825s10.096 27.403 20.192 37.499 23.076 17.307 37.499 20.192c14.423 2.885 28.845 0 41.825-4.327 12.98-5.769 24.518-14.423 31.73-25.961s11.538-25.961 11.538-40.383-7.211-37.499-21.634-50.479c-12.98-12.98-31.73-21.634-50.479-21.634zM726.896 122.051h-442.772c-5.769 24.518-18.749 47.594-37.499 64.901-18.749 18.749-40.383 31.73-64.901 37.499v442.772c24.518 5.769 47.594 18.749 64.901 37.499 18.749 18.749 31.73 40.383 37.499 64.901h442.772c5.769-24.518 18.749-47.594 37.499-64.901 18.749-18.749 40.383-31.73 64.901-37.499v-442.772c-24.518-5.769-47.594-18.749-64.901-37.499-18.749-18.749-31.73-40.383-37.499-64.901zM865.352 13.882c-14.423 0-28.845 4.327-40.383 11.538s-21.634 18.749-25.961 31.73c-5.769 12.98-7.211 27.403-4.327 41.825s10.096 27.403 20.192 37.499c10.096 10.096 23.076 17.307 37.499 20.192s28.845 0 41.825-4.327c12.98-5.769 24.518-14.423 31.73-25.961s11.538-25.961 11.538-40.383c0-18.749-7.211-37.499-21.634-50.479-12.98-12.98-31.73-21.634-50.479-21.634z" />
<glyph unicode="&#xe926;" glyph-name="users" horiz-adv-x="1276" d="M1225.443-60.643c-28.538 0-50.361 21.823-50.361 50.361v82.256c0 107.436-102.4 194.728-229.98 194.728h-94.007c-28.538 0-50.361 21.823-50.361 50.361s21.823 50.361 50.361 50.361h94.007c181.298 0 330.702-132.616 330.702-295.449v-82.256c0-28.538-21.823-50.361-50.361-50.361zM703.37-60.643c-28.538 0-50.361 21.823-50.361 50.361v82.256c0 107.436-102.4 194.728-229.98 194.728h-94.007c-125.902 0-229.98-87.292-229.98-194.728v-82.256c0-28.538-21.823-50.361-50.361-50.361s-50.361 21.823-50.361 50.361v82.256c0 162.833 147.725 295.449 330.702 295.449h94.007c181.298 0 330.702-132.616 330.702-295.449v-82.256c0-28.538-21.823-50.361-50.361-50.361zM376.026 461.43c-65.469 0-127.58 25.18-174.584 72.184s-72.184 109.115-72.184 174.584 25.18 127.58 72.184 174.584c47.003 45.325 109.115 70.505 174.584 70.505s127.58-25.18 174.584-72.184c47.003-47.003 72.184-109.115 72.184-174.584s-25.18-127.58-72.184-174.584c-47.003-47.003-109.115-72.184-174.584-72.184zM376.026 852.564c-38.61 0-75.541-15.108-102.4-41.967s-41.967-63.79-41.967-102.4 15.108-75.541 41.967-102.4c26.859-26.859 63.79-41.967 102.4-41.967s75.541 15.108 102.4 41.967c26.859 26.859 41.967 63.79 41.967 102.4s-15.108 75.541-41.967 102.4c-26.859 26.859-63.79 41.967-102.4 41.967zM899.777 461.43c-28.538 0-55.397 5.036-82.256 13.43-26.859 10.072-40.289 38.61-30.216 63.79s38.61 40.289 63.79 30.216c21.823-8.393 45.325-10.072 68.826-6.715s45.325 11.751 63.79 25.18c18.466 13.43 35.252 31.895 45.325 52.039s16.787 43.646 16.787 67.148-5.036 47.003-16.787 67.148c-10.072 20.144-26.859 38.61-45.325 52.039s-40.289 21.823-63.79 25.18c-23.502 3.357-47.003 0-68.826-6.715-26.859-8.393-55.397 5.036-63.79 30.216-10.072 26.859 5.036 55.397 30.216 63.79 36.931 13.43 77.22 16.787 115.83 11.751s75.541-20.144 107.436-43.646c31.895-23.502 58.754-53.718 77.22-87.292 18.466-35.252 26.859-73.862 26.859-112.472s-10.072-78.898-26.859-112.472c-18.466-35.252-43.646-65.469-77.22-87.292-31.895-21.823-68.826-36.931-107.436-43.646-11.751 0-21.823-1.679-33.574-1.679z" />
<glyph unicode="&#xe927;" glyph-name="web" horiz-adv-x="967" d="M694.044 351.289c0 34.133 5.689 62.578 5.689 96.711s0 62.578-5.689 96.711h164.978c5.689-28.444 11.378-62.578 11.378-96.711s0-68.267-11.378-96.711zM608.711 83.911c28.444 51.2 51.2 113.778 68.267 170.667h142.222c-45.511-79.644-119.467-142.222-210.489-170.667zM597.333 351.289h-227.556c0 34.133-5.689 62.578-5.689 96.711s0 62.578 5.689 96.711h227.556c0-34.133 5.689-62.578 5.689-96.711s0-62.578-5.689-96.711zM483.556 61.156c-39.822 56.889-73.956 125.156-91.022 193.422h182.044c-17.067-68.267-51.2-130.844-91.022-193.422zM290.133 641.422h-142.222c45.511 79.644 119.467 142.222 210.489 170.667-28.444-51.2-51.2-113.778-68.267-170.667zM147.911 254.578h142.222c17.067-62.578 39.822-119.467 68.267-170.667-85.333 28.444-164.978 91.022-210.489 170.667zM108.089 351.289c-5.689 28.444-11.378 62.578-11.378 96.711s0 68.267 11.378 96.711h164.978c0-34.133-5.689-62.578-5.689-96.711s0-62.578 5.689-96.711zM483.556 834.844c39.822-56.889 73.956-125.156 91.022-193.422h-182.044c17.067 68.267 51.2 136.533 91.022 193.422zM819.2 641.422h-142.222c-17.067 62.578-39.822 119.467-68.267 170.667 91.022-28.444 164.978-91.022 210.489-170.667zM483.556 931.556c-267.378 0-483.556-216.178-483.556-483.556s51.2-250.311 142.222-341.333c45.511-45.511 96.711-79.644 159.289-102.4 56.889-22.756 119.467-34.133 187.733-34.133 130.844 0 250.311 51.2 341.333 142.222s142.222 216.178 142.222 341.333-11.378 125.156-34.133 187.733c-22.756 56.889-62.578 113.778-102.4 159.289s-96.711 79.644-159.289 102.4c-56.889 22.756-119.467 34.133-187.733 34.133z" />
<glyph unicode="&#xe928;" glyph-name="webcam" horiz-adv-x="851" d="M425.354 125.046c-230.006 0-417.477 187.471-417.477 417.477s187.471 417.477 417.477 417.477 417.477-187.471 417.477-417.477-187.471-417.477-417.477-417.477zM425.354 881.231c-187.471 0-338.708-151.237-338.708-338.708s151.237-338.708 338.708-338.708 338.708 151.237 338.708 338.708-151.237 338.708-338.708 338.708zM425.354 361.354c-99.249 0-181.169 81.92-181.169 181.169s81.92 181.169 181.169 181.169 181.169-81.92 181.169-181.169-81.92-181.169-181.169-181.169zM425.354 644.923c-56.714 0-102.4-45.686-102.4-102.4s45.686-102.4 102.4-102.4 102.4 45.686 102.4 102.4-45.686 102.4-102.4 102.4zM661.662-64h-472.615c-22.055 0-39.385 17.329-39.385 39.385s17.329 39.385 39.385 39.385h196.923v149.662c0 22.055 17.329 39.385 39.385 39.385s39.385-17.329 39.385-39.385v-149.662h196.923c22.055 0 39.385-17.329 39.385-39.385s-17.329-39.385-39.385-39.385z" />
<glyph unicode="&#xe929;" glyph-name="youtube" horiz-adv-x="1280" d="M640 960c56.32 0 112.64 0 163.84 0h66.56c0 0 61.44-5.12 61.44-5.12h56.32c0 0 51.2-10.24 51.2-10.24 56.32 0 112.64-30.72 153.6-66.56 40.96-40.96 66.56-92.16 71.68-148.48v-25.6s5.12-56.32 5.12-56.32c0-61.44 10.24-128 10.24-189.44s0-128-10.24-189.44v-56.32c0 0-5.12-25.6-5.12-25.6-5.12-56.32-30.72-112.64-71.68-148.48-40.96-40.96-92.16-66.56-153.6-66.56h-51.2c0 0-56.32-10.24-56.32-10.24h-61.44c0 0-66.56-5.12-66.56-5.12-56.32 0-112.64 0-163.84 0-56.32 0-112.64 0-163.84 0h-66.56c0 0-61.44 5.12-61.44 5.12h-56.32c0 0-51.2 10.24-51.2 10.24-56.32 0-112.64 30.72-153.6 66.56-40.96 40.96-66.56 92.16-71.68 148.48v25.6s-5.12 56.32-5.12 56.32c0 61.44-5.12 128-10.24 189.44 0 61.44 0 128 10.24 189.44v56.32c0 0 5.12 25.6 5.12 25.6 5.12 56.32 30.72 112.64 71.68 148.48 40.96 40.96 92.16 66.56 153.6 66.56h51.2c0 0 56.32 10.24 56.32 10.24h61.44c0 0 66.56 5.12 66.56 5.12 51.2 0 107.52 0 163.84 0zM640 832c-51.2 0-107.52 0-158.72 0h-61.44c0 0-61.44-5.12-61.44-5.12h-56.32c0 0-51.2-10.24-51.2-10.24-25.6 0-51.2-15.36-71.68-30.72-20.48-20.48-30.72-46.080-35.84-71.68-5.12-76.8-15.36-174.080-15.36-261.12s5.12-184.32 15.36-261.12c5.12-56.32 51.2-97.28 107.52-102.4h51.2c0 0 56.32-10.24 56.32-10.24h61.44c0 0 61.44-5.12 61.44-5.12 51.2 0 107.52 0 158.72 0s107.52 0 158.72 0h61.44c0 0 61.44 5.12 61.44 5.12h56.32c0 0 51.2 10.24 51.2 10.24 25.6 0 51.2 15.36 71.68 30.72 20.48 20.48 30.72 46.080 35.84 71.68 5.12 76.8 15.36 174.080 15.36 261.12s-5.12 184.32-15.36 261.12c0 25.6-15.36 51.2-35.84 71.68s-46.080 30.72-71.68 30.72h-51.2c0 0-56.32 10.24-56.32 10.24h-61.44c0 0-61.44 5.12-61.44 5.12-51.2 0-107.52 0-158.72 0zM512 601.6c0 5.12 0 10.24 0 20.48 0 5.12 5.12 10.24 10.24 15.36 5.12 0 10.24 5.12 15.36 5.12s10.24 0 20.48 0h5.12c0 0 266.24-158.72 266.24-158.72 5.12 0 10.24-5.12 15.36-10.24 0-5.12 5.12-10.24 5.12-15.36s0-10.24 0-20.48c0-5.12-5.12-10.24-10.24-15.36h-5.12c0 0-266.24-158.72-266.24-158.72-5.12 0-10.24 0-15.36-5.12-5.12 0-10.24 0-20.48 0-5.12 0-10.24 5.12-15.36 10.24 0 0-5.12 10.24-5.12 15.36v0 317.44z" />
</font>
</defs>
</svg>
